<?xml version="1.0" encoding="UTF-8"?>

<svg version="1.2" baseProfile="tiny" width="297mm" height="127mm" viewBox="0 0 29700 12700" preserveAspectRatio="xMidYMid" fill-rule="evenodd" stroke-width="28.222" stroke-linejoin="round" xmlns="http://www.w3.org/2000/svg" xmlns:xlink="http://www.w3.org/1999/xlink" xml:space="preserve">
 <defs>
  <font id="EmbeddedFont_1" horiz-adv-x="2048">
   <font-face font-family="Arial embedded" units-per-em="2048" font-weight="normal" font-style="normal" ascent="1852" descent="450"/>
   <missing-glyph horiz-adv-x="2048" d="M 0,0 L 2047,0 2047,2047 0,2047 0,0 Z"/>
   <glyph unicode="9" horiz-adv-x="954" d="M 112,339 L 285,355 C 300,274 328,215 369,178 410,141 463,123 528,123 583,123 632,136 674,161 715,186 749,220 776,263 803,305 825,362 843,434 861,506 870,579 870,654 870,662 870,674 869,690 833,633 784,586 722,551 659,515 592,497 519,497 398,497 295,541 211,629 127,717 85,833 85,977 85,1126 129,1245 217,1336 304,1427 414,1472 546,1472 641,1472 729,1446 808,1395 887,1344 947,1271 988,1176 1029,1081 1049,943 1049,763 1049,576 1029,427 988,316 947,205 887,120 807,62 726,4 632,-25 524,-25 409,-25 316,7 243,71 170,134 127,224 112,339 Z M 849,986 C 849,1089 822,1171 767,1232 712,1293 645,1323 568,1323 488,1323 418,1290 359,1225 300,1160 270,1075 270,971 270,878 298,802 355,744 411,685 480,656 563,656 646,656 715,685 769,744 822,802 849,883 849,986 Z"/>
   <glyph unicode="8" horiz-adv-x="954" d="M 362,795 C 287,822 232,861 196,912 160,963 142,1023 142,1094 142,1201 180,1290 257,1363 334,1436 436,1472 563,1472 691,1472 794,1435 872,1361 950,1286 989,1196 989,1089 989,1021 971,962 936,912 900,861 846,822 773,795 863,766 932,718 979,653 1026,588 1049,510 1049,419 1049,294 1005,188 916,103 827,18 711,-25 566,-25 421,-25 305,18 216,104 127,189 83,296 83,424 83,519 107,599 156,664 204,728 273,772 362,795 Z M 326,1100 C 326,1031 348,974 393,930 438,886 496,864 567,864 636,864 693,886 738,930 782,973 804,1027 804,1090 804,1156 781,1212 736,1257 690,1302 633,1324 565,1324 496,1324 439,1302 394,1258 349,1214 326,1161 326,1100 Z M 268,423 C 268,372 280,322 305,274 329,226 365,189 413,163 461,136 513,123 568,123 654,123 725,151 781,206 837,261 865,332 865,417 865,504 836,575 779,632 721,689 649,717 562,717 477,717 407,689 352,633 296,577 268,507 268,423 Z"/>
   <glyph unicode="7" horiz-adv-x="954" d="M 97,1274 L 97,1447 1046,1447 1046,1307 C 953,1208 860,1076 769,911 677,746 606,577 556,403 520,280 497,146 487,0 L 302,0 C 304,115 327,255 370,418 413,581 476,739 557,891 638,1042 724,1170 815,1274 L 97,1274 Z"/>
   <glyph unicode="6" horiz-adv-x="980" d="M 1019,1107 L 840,1093 C 824,1164 801,1215 772,1247 723,1298 663,1324 592,1324 535,1324 484,1308 441,1276 384,1235 340,1174 307,1095 274,1016 257,903 256,756 299,822 352,871 415,903 478,935 543,951 612,951 732,951 834,907 919,819 1003,730 1045,616 1045,476 1045,384 1025,299 986,220 946,141 891,80 822,38 753,-4 674,-25 586,-25 436,-25 314,30 219,141 124,251 77,433 77,686 77,969 129,1175 234,1304 325,1416 448,1472 603,1472 718,1472 813,1440 887,1375 960,1310 1004,1221 1019,1107 Z M 284,475 C 284,413 297,354 324,297 350,240 387,197 434,168 481,138 531,123 583,123 659,123 724,154 779,215 834,276 861,360 861,465 861,566 834,646 780,705 726,763 658,792 576,792 495,792 426,763 369,705 312,646 284,570 284,475 Z"/>
   <glyph unicode="5" horiz-adv-x="954" d="M 85,384 L 274,400 C 288,308 321,239 372,193 423,146 484,123 556,123 643,123 716,156 776,221 836,286 866,373 866,481 866,584 837,665 780,724 722,783 646,813 553,813 495,813 443,800 396,774 349,747 313,713 286,671 L 117,693 259,1446 988,1446 988,1274 403,1274 324,880 C 412,941 504,972 601,972 729,972 837,928 925,839 1013,750 1057,636 1057,497 1057,364 1018,250 941,153 847,34 719,-25 556,-25 423,-25 314,12 230,87 145,162 97,261 85,384 Z"/>
   <glyph unicode="4" horiz-adv-x="1007" d="M 662,0 L 662,351 26,351 26,516 695,1466 842,1466 842,516 1040,516 1040,351 842,351 842,0 662,0 Z M 662,516 L 662,1177 203,516 662,516 Z"/>
   <glyph unicode="3" horiz-adv-x="954" d="M 86,387 L 266,411 C 287,309 322,236 372,191 421,146 482,123 553,123 638,123 709,152 768,211 826,270 855,342 855,429 855,512 828,580 774,634 720,687 651,714 568,714 534,714 492,707 441,694 L 461,852 C 473,851 483,850 490,850 567,850 636,870 697,910 758,950 789,1012 789,1095 789,1161 767,1216 722,1259 677,1302 620,1324 549,1324 479,1324 421,1302 374,1258 327,1214 297,1148 284,1060 L 104,1092 C 126,1213 176,1306 254,1373 332,1439 429,1472 545,1472 625,1472 699,1455 766,1421 833,1386 885,1339 921,1280 956,1221 974,1158 974,1091 974,1028 957,970 923,918 889,866 839,825 772,794 859,774 926,733 974,670 1022,607 1046,528 1046,433 1046,305 999,197 906,108 813,19 695,-26 552,-26 423,-26 317,12 232,89 147,166 98,265 86,387 Z"/>
   <glyph unicode="2" horiz-adv-x="953" d="M 1031,173 L 1031,0 62,0 C 61,43 68,85 83,125 108,191 147,256 202,320 256,384 334,458 437,542 596,673 704,776 760,853 816,929 844,1001 844,1069 844,1140 819,1201 768,1250 717,1299 650,1323 568,1323 481,1323 412,1297 360,1245 308,1193 282,1121 281,1029 L 96,1048 C 109,1186 156,1291 239,1364 322,1436 433,1472 572,1472 713,1472 824,1433 906,1355 988,1277 1029,1180 1029,1065 1029,1006 1017,949 993,892 969,835 929,776 874,713 818,650 725,564 596,455 488,364 419,303 388,271 357,238 332,206 312,173 L 1031,173 Z"/>
  </font>
 </defs>
 <defs>
  <font id="EmbeddedFont_2" horiz-adv-x="2048">
   <font-face font-family="StarSymbol embedded" units-per-em="2048" font-weight="normal" font-style="normal" ascent="1640" descent="397"/>
   <missing-glyph horiz-adv-x="2048" d="M 0,0 L 2047,0 2047,2047 0,2047 0,0 Z"/>
   <glyph unicode="●" horiz-adv-x="1165" d="M 813,0 C 633,0 490,54 383,161 276,268 223,412 223,592 223,772 276,916 383,1023 490,1130 633,1184 813,1184 992,1184 1136,1130 1245,1023 1353,916 1407,772 1407,592 1407,412 1353,268 1245,161 1136,54 992,0 813,0 Z"/>
   <glyph unicode="–" horiz-adv-x="1006" d="M 0,460 L 0,607 1024,607 1024,460 0,460 Z"/>
  </font>
 </defs>
 <defs>
  <font id="EmbeddedFont_3" horiz-adv-x="2048">
   <font-face font-family="Times New Roman embedded" units-per-em="2048" font-weight="normal" font-style="normal" ascent="1826" descent="503"/>
   <missing-glyph horiz-adv-x="2048" d="M 0,0 L 2047,0 2047,2047 0,2047 0,0 Z"/>
   <glyph unicode="1" horiz-adv-x="530" d="M 240,1223 L 570,1384 603,1384 603,239 C 603,163 606,116 613,97 619,78 632,64 652,54 672,44 713,38 774,37 L 774,0 264,0 264,37 C 328,38 369,44 388,54 407,63 420,76 427,93 434,109 438,158 438,239 L 438,971 C 438,1070 435,1133 428,1161 423,1182 415,1198 403,1208 390,1218 375,1223 358,1223 333,1223 299,1213 255,1192 L 240,1223 Z"/>
  </font>
 </defs>
 <defs>
  <font id="EmbeddedFont_4" horiz-adv-x="2048">
   <font-face font-family="ＭＳ Ｐゴシック embedded" units-per-em="2048" font-weight="normal" font-style="normal" ascent="1746" descent="291"/>
   <missing-glyph horiz-adv-x="2048" d="M 0,0 L 2047,0 2047,2047 0,2047 0,0 Z"/>
   <glyph unicode="集" horiz-adv-x="1800" d="M 688,1576 C 672,1528 643,1483 600,1440 L 992,1440 C 1029,1525 1056,1595 1072,1648 L 1232,1616 C 1253,1595 1245,1581 1208,1576 L 1144,1440 1784,1440 1784,1312 1120,1312 1120,1208 1656,1208 1656,1080 1120,1080 1120,976 1656,976 1656,848 1120,848 1120,728 1840,728 1840,600 1120,600 1120,480 1904,480 1904,328 1280,328 C 1451,205 1669,115 1936,56 L 1880,-104 C 1581,-29 1328,104 1120,296 L 1120,-176 960,-176 960,288 C 795,117 531,-21 168,-128 L 112,24 C 384,93 613,195 800,328 L 160,328 160,480 960,480 960,600 680,600 400,600 400,1168 C 352,1115 293,1061 224,1008 L 136,1120 C 339,1285 480,1467 560,1664 L 712,1616 C 733,1595 725,1581 688,1576 Z M 536,848 L 536,728 960,728 960,848 536,848 Z M 536,1080 L 536,976 960,976 960,1080 536,1080 Z M 536,1312 L 536,1208 960,1208 960,1312 536,1312 Z"/>
   <glyph unicode="編" horiz-adv-x="1827" d="M 136,56 C 184,184 208,344 208,536 L 368,520 C 389,509 384,491 352,464 347,272 320,115 272,-8 L 136,56 Z M 176,1304 L 248,1264 C 339,1397 416,1531 480,1664 L 624,1560 C 645,1544 635,1533 592,1528 L 360,1192 480,1104 688,1424 824,1304 C 845,1283 832,1275 784,1280 L 432,800 704,816 C 693,869 669,923 632,976 L 768,1024 C 837,928 885,808 912,664 L 768,616 744,704 584,688 584,-176 424,-176 424,672 160,648 C 155,611 141,603 120,624 L 72,800 256,800 400,984 C 309,1059 208,1123 96,1176 L 176,1304 Z M 1048,448 C 1011,256 925,91 792,-48 L 680,48 C 856,240 944,464 944,720 L 944,1304 1840,1304 1840,880 1080,880 1080,736 1912,736 1912,-48 C 1912,-133 1880,-176 1816,-176 L 1720,-176 1696,-48 1752,-48 C 1768,-48 1776,-40 1776,-24 L 1776,248 1656,248 1656,-120 1520,-120 1520,248 1424,248 1424,-120 1288,-120 1288,248 1184,248 1184,-168 1048,-168 1048,448 Z M 752,560 C 805,480 832,392 832,296 L 704,248 C 699,349 672,437 624,512 L 752,560 Z M 1656,608 L 1656,376 1776,376 1776,608 1656,608 Z M 1424,608 L 1424,376 1520,376 1520,608 1424,608 Z M 1184,608 L 1184,376 1288,376 1288,608 1184,608 Z M 1080,1176 L 1080,1008 1704,1008 1704,1176 1080,1176 Z M 1904,1440 L 864,1440 864,1592 1904,1592 1904,1440 Z"/>
   <glyph unicode="目" horiz-adv-x="1192" d="M 1624,-136 L 1464,-136 1464,-40 560,-40 560,-168 400,-168 400,1552 1624,1552 1624,-136 Z M 1464,1088 L 1464,1400 560,1400 560,1088 1464,1088 Z M 1464,616 L 1464,936 560,936 560,616 1464,616 Z M 1464,112 L 1464,464 560,464 560,112 1464,112 Z"/>
   <glyph unicode="書" horiz-adv-x="1853" d="M 560,288 L 560,208 1480,208 1480,288 560,288 Z M 944,1400 L 384,1400 384,1528 944,1528 944,1672 1096,1672 C 1139,1667 1141,1651 1104,1624 L 1104,1528 1656,1528 1656,1312 1920,1312 1920,1184 1656,1184 1656,960 1104,960 1104,864 1688,864 1688,736 1104,736 1104,640 1944,640 1944,512 104,512 104,640 944,640 944,736 360,736 360,864 944,864 944,960 376,960 376,1088 944,1088 944,1184 136,1184 136,1312 944,1312 944,1400 Z M 400,416 L 1640,416 1640,-168 1480,-168 1480,-128 560,-128 560,-168 400,-168 400,416 Z M 560,80 L 560,0 1480,0 1480,80 560,80 Z M 1496,1312 L 1496,1400 1104,1400 1104,1312 1496,1312 Z M 1104,1184 L 1104,1088 1496,1088 1496,1184 1104,1184 Z"/>
   <glyph unicode="式" horiz-adv-x="1721" d="M 1488,296 C 1557,168 1619,104 1672,104 1693,104 1707,120 1712,152 L 1728,288 1904,208 1872,16 C 1856,-75 1808,-120 1728,-120 1568,-120 1432,-11 1320,208 1213,416 1157,709 1152,1088 L 168,1088 168,1264 1144,1264 1144,1632 1320,1632 C 1373,1621 1376,1600 1328,1568 L 1328,1264 1888,1264 1888,1088 1328,1088 C 1349,715 1403,451 1488,296 Z M 1176,152 C 877,88 576,29 272,-24 261,-72 243,-77 216,-40 L 176,160 C 309,171 440,187 568,208 L 568,664 248,664 248,816 1040,816 1040,664 728,664 728,232 C 851,248 992,272 1152,304 L 1176,152 Z M 1544,1592 C 1619,1555 1691,1504 1760,1440 L 1616,1320 C 1563,1373 1493,1424 1408,1472 L 1544,1592 Z"/>
   <glyph unicode="ン" horiz-adv-x="1562" d="M 1664,928 C 1381,341 907,32 240,0 213,-69 187,-75 160,-16 L 96,192 C 789,208 1256,493 1496,1048 L 1664,928 Z M 536,928 C 392,1061 256,1171 128,1256 L 264,1424 C 376,1355 517,1240 688,1080 L 536,928 Z"/>
   <glyph unicode="レ" horiz-adv-x="1403" d="M 424,184 C 915,275 1272,523 1496,928 L 1632,792 C 1376,344 949,69 352,-32 L 224,64 240,112 240,1440 416,1440 C 464,1435 467,1416 424,1384 L 424,184 Z"/>
   <glyph unicode="ル" horiz-adv-x="1826" d="M 1200,232 C 1435,323 1651,504 1848,776 L 1960,624 C 1757,347 1501,147 1192,24 L 1128,-8 1000,88 1016,128 1016,1416 1184,1416 C 1232,1405 1237,1384 1200,1352 L 1200,232 Z M 128,16 C 395,272 528,589 528,968 L 528,1328 696,1328 C 744,1317 749,1296 712,1264 L 712,976 C 712,528 571,173 288,-88 L 128,16 Z"/>
   <glyph unicode="リ" horiz-adv-x="1059" d="M 1240,704 C 1240,304 1053,16 680,-160 L 520,-24 C 872,136 1051,381 1056,712 L 1056,1512 1224,1512 C 1277,1501 1283,1480 1240,1448 L 1240,704 Z M 416,528 L 232,528 232,1432 408,1432 C 461,1427 464,1405 416,1368 L 416,528 Z"/>
   <glyph unicode="ラ" horiz-adv-x="1483" d="M 440,-8 C 957,125 1248,405 1312,832 L 96,832 96,1008 1320,1008 1392,1032 1536,944 C 1568,917 1563,893 1520,872 1435,339 1123,-8 584,-168 L 440,-8 Z M 1344,1288 L 240,1288 240,1464 1344,1464 1344,1288 Z"/>
   <glyph unicode="ベ" horiz-adv-x="1748" d="M 904,1208 C 1149,989 1461,717 1840,392 L 1664,232 C 1387,488 1125,728 880,952 832,995 800,1016 784,1016 757,1016 725,995 688,952 533,771 384,603 240,448 L 88,624 C 296,827 493,1019 680,1200 712,1232 749,1248 792,1248 835,1248 872,1235 904,1208 Z M 1408,1624 C 1499,1555 1587,1469 1672,1368 L 1576,1272 C 1475,1384 1387,1469 1312,1528 L 1408,1624 Z M 1216,1448 C 1301,1379 1392,1293 1488,1192 L 1392,1096 C 1285,1203 1195,1285 1120,1344 L 1216,1448 Z"/>
   <glyph unicode="ト" horiz-adv-x="980" d="M 440,960 C 701,885 965,784 1232,656 L 1136,472 C 853,616 621,712 440,760 L 440,-72 256,-72 256,1528 416,1528 C 480,1523 488,1501 440,1464 L 440,960 Z"/>
   <glyph unicode="テ" horiz-adv-x="1615" d="M 856,800 L 56,800 56,976 1696,976 1696,800 1040,800 1040,696 C 1040,360 920,83 680,-136 L 520,-16 C 744,160 856,397 856,696 L 856,800 Z M 344,1288 L 344,1464 1408,1464 1408,1288 344,1288 Z"/>
   <glyph unicode="ッ" horiz-adv-x="1351" d="M 1376,976 C 1339,629 1243,379 1088,224 933,69 731,-53 480,-144 L 376,8 C 621,88 813,197 952,336 1101,485 1187,739 1208,1096 L 1376,1040 C 1424,1024 1424,1003 1376,976 Z M 696,688 C 632,832 568,952 504,1048 L 656,1128 C 736,1027 805,907 864,768 L 696,688 Z M 288,568 C 224,717 157,843 88,944 L 248,1024 C 323,923 389,800 448,656 L 288,568 Z"/>
   <glyph unicode="タ" horiz-adv-x="1351" d="M 784,1488 C 763,1424 736,1363 704,1304 L 1240,1304 1328,1336 1432,1232 C 1453,1205 1443,1184 1400,1168 1357,955 1293,760 1208,584 L 1400,456 1280,280 1104,408 C 949,184 728,0 440,-144 L 256,-8 C 576,125 805,301 944,520 811,605 680,683 552,752 L 648,896 C 813,821 949,752 1056,688 1136,853 1184,1000 1200,1128 L 616,1128 C 515,947 389,781 240,632 L 88,736 C 360,1019 539,1317 624,1632 L 816,1552 C 859,1531 848,1509 784,1488 Z"/>
   <glyph unicode="ス" horiz-adv-x="1642" d="M 1072,728 C 1301,552 1528,349 1752,120 L 1592,-16 C 1368,219 1152,416 944,576 736,352 499,152 232,-24 L 80,112 C 645,480 1008,848 1168,1216 L 296,1160 272,1352 1200,1392 1296,1416 1424,1288 C 1461,1251 1451,1227 1392,1216 1291,1040 1184,877 1072,728 Z"/>
   <glyph unicode="ク" horiz-adv-x="1457" d="M 1488,1096 C 1387,515 1053,99 488,-152 L 344,0 C 867,213 1181,581 1288,1104 L 648,1104 C 525,901 397,739 264,616 L 104,720 C 381,971 560,1264 640,1600 L 824,1536 C 856,1520 851,1504 808,1488 787,1419 757,1349 720,1280 L 1296,1280 1368,1320 1512,1176 C 1549,1139 1541,1112 1488,1096 Z"/>
   <glyph unicode="キ" horiz-adv-x="1748" d="M 1864,624 L 1120,544 1272,-104 1096,-144 944,520 128,424 104,592 904,680 824,1056 280,992 248,1160 776,1216 696,1584 864,1616 C 912,1621 920,1603 888,1560 L 952,1240 1536,1320 1568,1152 1000,1080 1080,704 1832,792 1864,624 Z"/>
   <glyph unicode="ウ" horiz-adv-x="1509" d="M 1712,1128 C 1712,547 1432,117 872,-160 L 720,-8 C 1237,227 1499,579 1504,1048 L 392,1048 408,576 224,576 200,1224 832,1224 832,1624 992,1624 C 1056,1619 1064,1597 1016,1560 L 1016,1224 1616,1224 1712,1128 Z"/>
   <glyph unicode="イ" horiz-adv-x="1483" d="M 120,584 C 680,819 1104,1149 1392,1576 L 1544,1448 C 1587,1416 1568,1392 1488,1376 1387,1243 1256,1107 1096,968 L 1096,-120 912,-120 912,816 C 725,672 507,541 256,424 L 120,584 Z"/>
   <glyph unicode="ア" horiz-adv-x="1642" d="M 976,816 C 987,411 813,96 456,-128 L 320,24 C 635,195 792,435 792,744 L 792,1088 960,1088 C 1008,1083 1013,1064 976,1032 L 976,824 C 1168,968 1315,1109 1416,1248 L 112,1200 96,1384 1552,1424 1608,1440 1728,1296 C 1744,1275 1731,1267 1688,1272 1528,1064 1336,869 1112,688 L 976,816 Z"/>
   <glyph unicode="を" horiz-adv-x="1536" d="M 632,928 C 696,949 757,960 816,960 885,960 941,939 984,896 1016,864 1035,805 1040,720 1200,779 1381,840 1584,904 L 1640,712 C 1432,680 1237,629 1056,560 L 1056,208 896,208 896,496 C 736,421 632,360 584,312 525,253 496,195 496,136 496,104 512,72 544,40 581,3 653,-16 760,-16 L 1432,-16 1432,-168 752,-168 C 581,-168 461,-133 392,-64 339,-11 312,56 312,136 312,221 347,299 416,368 523,475 680,571 888,656 883,720 869,763 848,784 827,805 781,816 712,816 605,816 443,720 224,528 L 88,664 C 339,819 509,989 600,1176 451,1165 301,1155 152,1144 L 120,1304 C 312,1309 493,1317 664,1328 691,1392 723,1499 760,1648 L 912,1608 C 965,1587 965,1565 912,1544 891,1475 867,1405 840,1336 1032,1352 1216,1373 1392,1400 L 1416,1232 C 1208,1216 1000,1200 792,1184 739,1077 685,992 632,928 Z"/>
   <glyph unicode="る" horiz-adv-x="1483" d="M 1128,40 C 1213,51 1285,85 1344,144 1408,208 1440,293 1440,400 1440,517 1405,611 1336,680 1267,749 1157,784 1008,784 832,784 696,749 600,680 509,616 392,501 248,336 L 112,456 C 496,840 787,1160 984,1416 808,1395 632,1376 456,1360 L 400,1544 C 661,1544 893,1557 1096,1584 L 1168,1616 1256,1528 C 1315,1475 1301,1440 1216,1424 1056,1243 896,1064 736,888 848,915 941,928 1016,928 1219,928 1368,880 1464,784 1560,688 1608,565 1608,416 1608,261 1565,141 1480,56 1352,-72 1189,-136 992,-136 805,-136 669,-93 584,-8 515,61 480,144 480,240 480,304 504,360 552,408 605,461 667,488 736,488 832,488 912,456 976,392 1051,317 1101,200 1128,40 Z M 968,16 C 952,155 920,248 872,296 835,333 797,352 760,352 717,352 685,341 664,320 637,293 624,264 624,232 624,184 645,139 688,96 741,43 811,16 896,16 917,16 941,16 968,16 Z"/>
   <glyph unicode="ま" horiz-adv-x="1562" d="M 1032,432 C 1251,384 1464,309 1672,208 L 1584,32 C 1387,155 1203,237 1032,280 1032,141 997,37 928,-32 864,-96 760,-128 616,-128 504,-128 413,-93 344,-24 296,24 272,91 272,176 272,251 299,315 352,368 421,437 528,472 672,472 715,472 781,469 872,464 L 872,712 264,696 264,856 872,872 872,1152 120,1128 120,1288 872,1312 872,1624 1016,1624 C 1075,1613 1080,1592 1032,1560 L 1032,1328 1688,1352 1688,1192 1032,1168 1032,880 1552,896 1552,736 1032,720 1032,432 Z M 864,312 C 805,323 747,328 688,328 581,328 507,307 464,264 437,237 424,203 424,160 424,128 437,99 464,72 501,35 560,16 640,16 704,16 757,37 800,80 848,128 869,205 864,312 Z"/>
   <glyph unicode="は" horiz-adv-x="1694" d="M 1472,1024 C 1483,821 1483,619 1472,416 1632,357 1787,275 1936,168 L 1840,16 C 1728,101 1605,176 1472,240 1472,144 1443,67 1384,8 1320,-56 1227,-88 1104,-88 981,-88 888,-56 824,8 771,61 744,131 744,216 744,291 765,349 808,392 872,456 968,488 1096,488 1165,488 1235,480 1304,464 1315,645 1315,829 1304,1016 L 712,976 712,1144 1288,1176 C 1283,1325 1272,1459 1256,1576 L 1424,1576 C 1483,1565 1488,1544 1440,1512 1445,1400 1451,1291 1456,1184 L 1888,1208 1888,1040 1472,1024 Z M 264,-48 C 243,101 232,275 232,472 232,904 264,1251 328,1512 L 504,1480 C 541,1464 539,1445 496,1424 437,1237 408,920 408,472 408,269 421,107 448,-16 L 264,-48 Z M 1304,304 C 1213,331 1144,344 1096,344 1021,344 968,328 936,296 909,269 896,243 896,216 896,173 907,141 928,120 965,83 1021,64 1096,64 1171,64 1224,83 1256,120 1293,163 1309,224 1304,304 Z"/>
   <glyph unicode="の" horiz-adv-x="1668" d="M 1104,1128 C 1013,595 904,264 776,136 707,67 635,32 560,32 475,32 408,56 360,104 232,232 168,392 168,584 168,819 251,1019 416,1184 597,1365 819,1456 1080,1456 1315,1456 1499,1389 1632,1256 1781,1107 1856,931 1856,728 1856,509 1787,331 1648,192 1557,101 1419,13 1232,-72 L 1064,96 C 1251,155 1397,237 1504,344 1605,445 1656,568 1656,712 1656,883 1600,1024 1488,1136 1376,1248 1200,1299 960,1288 L 1104,1216 C 1168,1189 1168,1160 1104,1128 Z M 920,1280 C 781,1248 661,1181 560,1080 421,941 352,771 352,568 352,445 392,344 472,264 488,248 512,240 544,240 576,240 611,259 648,296 771,419 861,747 920,1280 Z"/>
   <glyph unicode="に" horiz-adv-x="1589" d="M 1368,96 C 1117,96 909,176 744,336 L 848,472 C 992,333 1165,267 1368,272 L 1808,272 1808,96 1368,96 Z M 224,-56 C 208,221 200,459 200,656 200,896 229,1181 288,1512 L 448,1472 C 507,1461 509,1437 456,1400 403,1091 376,843 376,656 376,448 387,216 408,-40 L 224,-56 Z M 1704,1128 C 1475,1133 1176,1117 808,1080 L 808,1248 C 1192,1285 1491,1301 1704,1296 L 1704,1128 Z"/>
   <glyph unicode="す" horiz-adv-x="1748" d="M 984,416 C 920,379 853,360 784,360 693,360 624,384 576,432 512,496 480,568 480,648 480,733 512,808 576,872 640,936 720,968 816,968 880,968 941,960 1000,944 L 1000,1120 120,1064 88,1232 1000,1272 1000,1648 1144,1648 C 1203,1637 1208,1616 1160,1584 L 1160,1280 1840,1328 1840,1160 1160,1128 1160,824 C 1181,728 1192,621 1192,504 1187,232 1035,3 736,-184 L 584,-72 C 851,83 984,245 984,416 Z M 832,832 C 773,832 725,813 688,776 656,744 640,701 640,648 640,600 653,563 680,536 707,509 749,496 808,496 867,496 915,515 952,552 984,584 1000,624 1000,672 1000,720 984,760 952,792 925,819 885,832 832,832 Z"/>
   <glyph unicode="し" horiz-adv-x="1244" d="M 1488,288 C 1259,37 1011,-88 744,-88 552,-88 411,-43 320,48 251,117 216,251 216,448 L 216,1520 384,1520 C 432,1509 437,1488 400,1456 L 400,448 C 400,315 424,224 472,176 531,117 619,88 736,88 944,88 1155,205 1368,440 L 1488,288 Z"/>
   <glyph unicode="。" horiz-adv-x="557" d="M 680,304 C 733,251 760,184 760,104 760,24 733,-43 680,-96 627,-149 560,-176 480,-176 400,-176 333,-149 280,-96 227,-43 200,24 200,104 200,184 227,251 280,304 333,357 400,384 480,384 560,384 627,357 680,304 Z M 608,-24 C 645,13 664,56 664,104 664,152 645,195 608,232 571,269 528,288 480,288 432,288 389,269 352,232 315,195 296,152 296,104 296,56 315,13 352,-24 389,-61 432,-80 480,-80 528,-80 571,-61 608,-24 Z"/>
  </font>
</defs>
</svg>
